The Twilight Saga Breaking Dawn Part 1 [2011]CAM XviD -BlackStat...

  • Category Movies
  • Type Divx/Xvid
  • Language English
  • Total size 1.5 GB
  • Uploaded By Rishi
  • Downloads 843
  • Last checked 8 months ago
  • Date uploaded 7 years ago
  • Seeders 0
  • Leechers 0

The Twilight Saga: Breaking Dawn - ...

AdventureFantasyRomance

The new found married bliss of Bella Swan and vampire Edward Cullen is cut short when a series of betrayals and misfortunes threatens to destroy their world. Bella soon discovers she is pregnant, and during a nearly fatal childbirth, Edward finally fulfills her wish to become immortal. But the arrival of their remarkable daughter, Renesmee, sets in motion a perilous chain of events that pits the Cullens and their allies against the Volturi, the fearsome council of vampire leaders, setting the stage for an all-out battle.

Infohash : FE9F7C445932B847B143225CBCC56ABE20474510






Code:

Genre :Adventure | Drama | Fantasy

Language:English

IMDb:http://www.imdb.com/title/tt1324999/

PLOT:The Quileute and the Volturi close in on expecting
parents Edward and Bella, whose unborn child poses
different threats to the wolf pack and vampire coven.



Format : AVI
Format/Info : Audio Video Interleave
File size : 1.53 GiB
Duration : 1h 43mn
Overall bit rate : 2 121 Kbps
Writing library : VirtualDub build 32842/release

Video
ID : 0
Format : MPEG-4 Visual
Format profile : [email protected]
Format settings, BVOP : No
Format settings, QPel : No
Format settings, GMC : No warppoints
Format settings, Matrix : Default (H.263)
Codec ID : XVID
Codec ID/Hint : XviD
Duration : 1h 43mn
Bit rate : 700 Kbps
Width : 640 pixels
Height : 256 pixels
Display aspect ratio : 2.500
Frame rate : 25.000 fps
Color space : YUV
Chroma subsampling : 4:2:0
Bit depth : 8 bits
Scan type : Progressive
Compression mode : Lossy
Bits/(Pixel*Frame) : 0.171
Stream size : 516 MiB (33%)
Writing library : XviD 64

Audio
ID : 1
Format : PCM
Format settings, Endianness : Little
Format settings, Sign : Signed
Codec ID : 1
Codec ID/Hint : Microsoft
Duration : 1h 43mn
Bit rate mode : Constant
Bit rate : 1 411.2 Kbps
Channel(s) : 2 channels
Sampling rate : 44.1 KHz
Bit depth : 16 bits
Stream size : 1.02 GiB (67%)
Interleave, duration : 40 ms (1.00 video frame)
Interleave, preload duration : 500 ms

Video: Russian Thanks
Audio: Hope Thanks

The video source is from some Russians . I think its KiKteam but the russian Claim Its Theirs . Audio in the Cam Had Volume Problems that we couldn't hear a word in the Movie . We Cleaned Abit Expect Human Noises And Giving You Guys A RAW Audio ! We increased the volume To Let U Guys Hear ! Not To Go Deaf and its Greats !

Some Video Notes : Video Was Kinda Crappy ! We Boost it To A Natural Veiw ! We Bright it up and Level it ! Sharp a Little For Clearness ! A Experiment By BlackstaticRG ! Like it Download It










Enjoy.... !

Thanks To NiCkkkdon

Greetz to ::
IMAGiNE,Flawl3ss,BDK,Ez,DDR,Sam,absurdity,BHRG,iLLUMiNATi,ViSUALiSE,MiSTERE,Feel-Free !!

Files:

  • The Twilight Saga Breaking Dawn Part 1[2011]TS XviD-BlackStaticRG.avi (1.5 GB)
Screen Shots
  • vlcsnap-2011-11-21-22h29m49s255.png (283.7 KB)
  • vlcsnap-2011-11-21-22h31m42s122.png (226.0 KB)
  • vlcsnap-2011-11-21-22h30m05s161.png (212.5 KB)
  • vlcsnap-2011-11-21-22h35m18s232.png (202.8 KB)
  • vlcsnap-2011-11-21-22h36m26s143.png (199.7 KB)
  • vlcsnap-2011-11-21-22h35m57s98.png (174.9 KB)
  • vlcsnap-2011-11-21-22h30m21s74.png (122.9 KB)

Comments

Code:

  • http://fr33dom.h33t.com:3310/announce
  • http://tracker.torrentbay.to:6969/announce
  • http://tracker.novalayer.org:6969/announce
  • http://tracker.publicbt.com:80/announce
  • http://tracker.torrent.to:2710/announce
  • udp://tracker.openbittorrent.com:80/announce
  • udp://tracker.1337x.org:80/announce
SitemapLâm Phi Truyện | Watch Episode | Antoine Fuqua